Archivo de la etiqueta: Cabo Blanco

[HD/DVDRip] Descargar Cabo Blanco (1980) (HD1080 mkv) (DDMulti) Gratis en Cast Online Descargar Gratis HDRip

[HD/DVDRip] Descargar Cabo Blanco (1980) (HD1080 mkv) (DDMulti) Gratis en Cast Online Descargar Gratis HDRip descargar 1 link gratis dvdrip latino, español, castellano, full HD, rmvb, putlocker, subtitutada, mediafire, mf, ver online Descargar Cabo Blanco (1980) (HD1080 mkv) (DDMulti) Gratis en Cast



Descargar {Cabo Blanco} Gratis en {Idioma: Castellano} {HD1080p}








Cita:




Título original Caboblanco
Año 1980
Duración 87 min.
País Estados Unidos
Director J. Lee Thompson
Guión Morton S. Fine, Milton S. Gelman (Historia: Jaime Comas Gil, Víctor Andrés Catena)
Música Jerry Goldsmith
Fotografía Alex Phillips
Reparto Charles Bronson, Jason Robards, Dominique Sanda, Fernando Rey, Gilbert Roland, Simon MacCorkindale, Camilla Sparv
Productora Coproducción USA-México; AVCO Embassy Pictures
Género Intriga. Drama






Cita:




General
Complete name : /ca_bo_blan_co_1980_by_mjasx.mkv
Format : Matroska
Format version : Version 4 / Version 2
File size : 5.03 GiB
Duration : 1h 31mn
Overall bit rate : 7 906 Kbps
Writing application : mkvmerge v6.2.0 (‘Promised Land’) built on Apr 28 2013 12:22:01
Writing library : libebml v1.3.0 + libmatroska v1.4.0

Video
ID : 1
Format : AVC
Format/Info : Advanced Video Codec
Format profile : [email protected]
Format settings, CABAC : Yes
Format settings, ReFrames : 5 frames
Codec ID : V_MPEG4/ISO/AVC
Duration : 1h 31mn
Bit rate : 7 715 Kbps
Width : 1 920 pixels
Height : 808 pixels
Display aspect ratio : 2.40:1
Frame rate mode : Constant
Frame rate : 24.000 fps
Color space : YUV
Chroma subsampling : 4:2:0
Bit depth : 8 bits
Scan type : Progressive
Bits/(Pixel*Frame) : 0.207
Stream size : 4.81 GiB (96%)
Writing library : x264 core 105

Audio
ID : 2
Format : AC-3
Format/Info : Audio Coding 3
Mode extension : CM (complete main)
Format settings, Endianness : Big
Codec ID : A_AC3
Duration : 1h 31mn
Bit rate mode : Constant
Bit rate : 192 Kbps
Channel(s) : 2 channels
Channel positions : Front: L R
Sampling rate : 48.0 KHz
Bit depth : 16 bits
Compression mode : Lossy
Stream size : 125 MiB (2%)
Title : AC3 Esp
Language : Spanish
Default : Yes
Forced : No






Cita:





Un hombre perseguido por la justicia americana se refugia en Cabo Blanco. Hasta allí llega un barco dedicado a la investigación científica, al frente del cual está un antiguo nazi que se ocupa de misteriosas actividades.













Descargar Cabo Blanco HDRip, descargar Descargar Cabo Blanco BRRip, descargar Descargar Cabo Blanco español latino, descargar Descargar Cabo Blanco dvdrip latino, descargar Descargar Cabo Blanco castellano, descargar Descargar Cabo Blanco subtitulada, descargar Descargar Cabo Blanco ***********, descargar Descargar Cabo Blanco putlocker, descargar [HD/DVDRip] Descargar Cabo Blanco (1980) (HD1080 mkv) (DDMulti) Gratis en Cast Online Descargar Gratis HDRip